Trivium
Silence In The Snow

Por: Luis Robles

Publicado el: 14/10/2015

Nevada de tranquilidad


Si ustedes estaban esperando una explosión de sonido gigantesca les recomiendo que le bajen un par de enteros a sus expectativas. O más bien unos diez. El cuarteto de Orlando, FL, EE.UU., nos traen su nueva grabación de estudio, un disco con una portada blanca que oportunamente le pone el tono a este disco.

Shogun arranca con “Kirisute Gomen”, un himno a toda mecha; In Waves arranca con “Capsizing The Sea/In Waves”, otro himno a toda velocidad para soltar adrenalina; Vengeance Falls arranca con “Brave This Storm”, que más decir. Todos tienen en común que son temas con una base rítmica pegajosa, que se queda en la memoria, con riffs memorables y formas increíbles de abrir un disco, son veloces sin ser precipitados o estar apretados, agresivos sin llegar a tocar el death, como forma natural de la banda desde el 2008.

Silence In The Snow

Trivium - Silence in The Snow

Trivium – Silence in The Snow

“Snøfall/Silence In The Snow” es el tema que abre el disco. Es muy tranquilo, muy bien elaborado con un sonido superb y que emula perfectamente el título, es un Trivium más maduro sin un solo growl, sin solos duales que hay que sentarse a escuchar, sin el doble pedal y quizás lo más importante: es diferente. Este homónimo es un tema que roza peligrosamente la generalidad radial. El error sería juzgar el disco completo por este solo tema de forma individual, el segundo error sería pensar que el disco en algún momento sube la mecha a algo más comfortable, todo el disco tiene esta pasividad, son temas con mucha mejor dinámica sonora y con más ritmo .

Por allá en el sexto track, “Pull me from the void” se asoma un doble pedal tímido que no dura más de unas 5 barras, se mantiene la tranquilidad helada propia de la nieve sobre la primera parte del disco. Sin embargo no quitemos el mérito a Heafy (guitarra y voz) , Gregoletto (guitarra bajo), Beaulieu (guitarra líder) y Madiro (percusión), «Silence In The Snow», es un disco muy bien hecho, con un sonido pulcro y riffs muy bien cuidados que posiblemente le falten algunos beats por minuto y que sinceramente no me los imagino manteniendo la vibra en un Wacken o un Bloodfest al lado de los tres discos anteriores.

“Blind Leading The Blind”, “Until The World Goes Cold” son dos temas muy bien elaborados, son más suaves, realmente muy melódicos, con un Heafy que deja mostrar el rango vocal que tiene, hay muchísimo más dinamismo entre las guitarras. Ya la voz no va atropellando las notas y se puede entender cada palabra sin tener que recurrir a la transliteración escrita de cada estrofa.

“The Thing That’s Killing Me” y “Breathe In The Flames” son, en mi opinión, la forma que tendrá Trivium a partir de este momento, son temas que tienen la estructura clásica de la banda, con los riffs más eléctricos y la percusión más prominente, pero sin un solo grito. Las voces son tan limpias como las voces blancas de Viena y el tema no deja de estar increible; se que a muchos de ustedes (especialmente Mr. Rodríguez, editor en jefe de Cᴏᴡʙᴏʏs Fʀᴏᴍ Rᴏᴄᴋ) le va a encantar este cambio a una limpieza mucho más abierta, mientras que a otros probablemente les haga ruido o les choque este cambio estructural tan profundo.

Trivium, de izq a der: Matthew Madiro (percusión), Paolo Gregoletto (guitarra bajo), Corey Beaulieu (guitarra líder), Matt Heafy (guitarra y voz)

Trivium, de izq a der: Matthew Madiro (percusión), Paolo Gregoletto (guitarra bajo), Corey Beaulieu (guitarra líder) y Matt Heafy (guitarra y voz)

Tracklist

Todos los temas compuestos por Trivium a excepción de «Snøfall», compuesto por Ishan.
1. «Snøfall» 1:28
2. «Silence in the Snow» 3:40
3. «Blind Leading the Blind» 4:25
4. «Dead and Gone» 3:46
5. «The Ghost That’s Haunting You» 4:09
6. «Pull Me from the Void» 3:53
7. «Until the World Goes Cold» 5:21
8. «Rise Above the Tides» 3:54
9. «The Thing That’s Killing Me» 3:30
10. «Beneath the Sun» 3:56
11. «Breathe in the Flames» 5:11
Total length: 43:13
Bonus Tracks
12. «Cease All Your Fire» 5:00
13. «The Darkness of My Mind» 4:44
Total length:52:57

Puntuación 7.5 / 10

Este disco marca la tercera vez que Trivium cambia su estilo totalmente sin perder sus marcas de identidad, es un cambio que obedece la madurez de la banda (Y los problemas físicos de Heafy) sin dejar de lado la forma de composición característica de los de Florida; Silence In The Snow es un disco mucho más melodioso, mejor estructurado, pensado como un hilo continuo musical en vez de pequeñas cápsulas de concierto. El cambio a este modo más armonioso seguramente dividirá a los fans en dos, por mi parte, este disco me ha gustado mucho, y quizás les tome un par de vueltas para que pueda enamorarte, solo hay que darle la oportunidad.
Dynamic Range: 10 (cuando les dije que el sonido era mucho más limpio no era una exageración, he aquí el gráfico completo)

DR Peak RMS Duration Track
——————————————————————————–
DR12 -2.43 dB -20.73 dB 1:28 01-Snøfall
DR9 -0.12 dB -10.60 dB 3:40 02-Silence In The Snow
DR10 -0.12 dB -10.48 dB 4:26 03-Blind Leading The Blind
DR10 -0.09 dB -10.76 dB 3:46 04-Dead And Gone
DR10 -0.06 dB -10.76 dB 4:10 05-The Ghost That’s Haunting You
DR9 -0.11 dB -10.37 dB 3:54 06-Pull Me From The Void
DR10 -0.10 dB -11.10 dB 5:21 07-Until The World Goes Cold
DR10 -0.09 dB -10.95 dB 3:54 08-Rise Above The Tides
DR10 -0.11 dB -10.71 dB 3:30 09-The Thing That’s Killing Me
DR9 -0.07 dB -9.89 dB 3:57 10-Beneath The Sun
DR10 -0.12 dB -11.44 dB 5:11 11-Breathe In The Flames
DR10 -0.08 dB -10.85 dB 5:02 12-Cease All Your Fire
DR9 -0.08 dB -10.41 dB 4:46 13-The Darkness Of My Mind

Luis Robles

Luis Robles

Un tipo de sistemas que cree que sabe escribir, le gusta la música y extenderse mientras te describe un paisaje sonoro.