David Gilmour
Rattle That Lock

Por: Luis Robles

Publicado el: 27/09/2015

Gilmourismo sin límites


Para este disco he estado pensando en las últimas horas como empezar así que simplemente haré un gran resumen y luego de forma directa al disco:

David Jon Gilmour (6 de marzo de 1946 en Cambridge, Reino Unido) es un Músico, compositor, cantante, y multiinstrumentista inglés, mejor conocido por su trabajo como el guitarrista y co-líder de la banda británica Pink Floyd (siendo quizás uno de las piezas más famosas de la música moderna The Dark Side of the Moon, y quizás una de las portadas de un disco de música más reconocidas del planeta desde 1971). Gilmour recibio en el 2005 la orden Commander of the Order of the British Empire por sus servicios a la música. Muy bien. Con eso fuera de la atención vamos a jamaquear esa cerradura

Rattle That Lock

David Gilmour - Rattle that lock (2015)

David Gilmour – Rattle that lock (2015)

«5.A.M» es el típico lead progresivo marca de la casa que comparten Gilmour y Waters aunque no lo admitan jamás. Es tan solo un lick de esa Stratocaster Negra, melancólico, lento, lleno de una pasión por la música a la que nos tienen acostumbrado Sir Gilmour. «Rattle That Lock» es un tema que puede sonar en la radio, que puede abrir un concierto, que lo puedes escuchar mil veces y no te cansarías jamás de él, tiene todo el aire del rock progresivo de los 70, suena bien, es pegajoso y de una vez:

El disco suena maravillosamente bien. Gilmour y Phil Manzanera produjeron esta obra y la atención al detalle es realmente apabullante, más allá de que Gilmour sea un compositor talentoso, el sonido de cada cosa está perfectamente donde debe estar al volumen correcto, y si le suben el volumen a su equipo hasta llegar a niveles que inducen dolores de cabeza el sonido no distorsiona, tiene una calidez que aquí en la redacción CFR sólo se la hemos visto a muy poca gente en los últimos años (siendo Steven Wilson uno de los grandes exponentes de calidad sobre cantidad)

«Faces of Stone» y «A Boat Lies Waiting», empiezan lentamente ese camino peligroso a la melancolía depresiva que solo Pink Floyd supo dominar y Gilmour y Waters llevan como bandera a donde van. Son temas que un día cualquiera te ponen a pensar y si estás medianamente triste te pueden enviar en un power slide a la tristeza que si no lo miras bien te estrellas contra la pared sin remedio. «In Any Tongue» tiene a Gabriel Gilmour (hijo de David) tocando el piano marcando la primera vez que la cría aparece en un disco. Es un tema más lento y pesado anímicamente, y tiene esta pequeña joya que dice mucho del tema como tal:

“The volume pumped right up is not enough to drown it out
I hear «Mama» sounds the same in any tongue”
“El volumen elevado no es suficiente para ahogarlo
Escucho “Mamá” suena igual en cualquier lengua”

David Gilmour

David Gilmour

«In Any Tongue», «The Girl in the Yellow Dress» y «Today «(Así como «Rattle That Lock») tienen la particularidad de haber sido escritas por Polly Samson (la esposa de David) y tienen el mismo tipo de lírica que por ejemplo “Louder Than Words” (el último tema escrito por Pink Floyd, y obviamente por Ms Samson); «The Girl» está más cerca del Blues que del rock, con unos arpegios al mejor estilo B.B King o Stevie Ray Vaughan, con un sonido de cabaret de la segunda guerra mundial, por supuesto la guitarra limpia de David ayuda muchísimo a lograr el efecto así como el saxo y el sonido del piano acompañando la percusión. Como para tomarse un trago sentado en un bar en algún sitio de los EEUU durante el otoño. Today por otra parte es un tema muy Gilmour. Y al mismo tiempo es extraño, es como alegre y rompe el estilo más gris del resto del disco con un sonido super brillante y upbeat. Este tema marca la evolución en solitario y abre la brecha que lo diferencia de sus trabajos anteriores sin dejar de poner el sello Gilmouriano sobre toda la pista.

«Beauty» y «And Then…» son instrumentales, la primera tiene una forma muy clásica y más rápida (en yuxtaposición al disco) con cierto aire de prisa y apuro, y la segunda cierra este magistral disco con un tema que va desvaneciéndose lentamente en el horizonte. Creo que de cualquier otra forma el disco habría quedado con un sentido de no estar completo.

Tracklist

Lado Uno
1. «5 A.M.» David Gilmour 3:04
2. «Rattle That Lock» Polly Samson Gilmour, Michaël Boumendil 4:55
3. «Faces of Stone» Gilmour 5:32
4. «A Boat Lies Waiting» Samson Gilmour 4:34
5. «Dancing Right in Front of Me» Gilmour 6:11

Lado Dos
6. «In Any Tongue» Samson Gilmour 6:46
7. «Beauty» Gilmour 4:28
8. «The Girl in the Yellow Dress» Samson Gilmour 5:25
9. «Today» Samson Gilmour 5:55
10. «And Then…» Gilmour 4:27

David Gilmour

«Rattle That Lock» es un álbum que debería estar en la colección de cualquier fan del rock, del progresivo o de la música moderna, es un sonido sutil, limpio, amplio y lleno de detalles que vamos descubriendo con cada vuelta. Definitivamente uno de los mejores del año y una joya que no deben omitir. Gilmour personalmente nos lleva de la mano con esas notas de su guitarra tan característica, es lento y suave, es como un amigo que te viene a visitar y te deja una sensación de tranquilidad en el corazón. Definitivamente uno de los mejores músicos que ha parido el Reino Unido.

Puntuación 9/10
DR: 12 (pero este disco merece poner el gráfico completo así que:

DR Peak RMS Duration Track
——————————————————————————–
DR11 -1.38 dB -16.80 dB 3:05 01-5 a.m.
DR12 0.00 dB -14.57 dB 4:56 02-Rattle That Lock
DR11 -0.63 dB -15.36 dB 5:32 03-Faces Of Stone
DR11 -1.61 dB -17.69 dB 4:35 04-A Boat Lies Waiting
DR12 -0.69 dB -15.38 dB 6:11 05-Dancing Right In Front Of Me
DR11 -0.36 dB -14.31 dB 6:47 06-In Any Tongue
DR13 -0.15 dB -17.16 dB 4:29 07-Beauty
DR12 -1.75 dB -15.86 dB 5:26 08-The Girl In The Yellow Dress
DR11 0.00 dB -13.20 dB 5:56 09-Today
DR11 -1.80 dB -15.59 dB 4:30 10-And Then…
——————————————————————————–

¡Realmente suena muy bien!)

Luis Robles

Luis Robles

Un tipo de sistemas que cree que sabe escribir, le gusta la música y extenderse mientras te describe un paisaje sonoro.