Adele
25

Por: Luis Robles

Publicado el: 29/11/2015

El cielo en una bandeja de plata


Hello, how are you?” empieza este album. ¿Qué podría decir de Adele Laurie Adkins que ustedes ya no sepan? ¿Que canta hermoso?¿Qué cada día está más cerca del blues? ¿Qué cada vez tiene más personalidad? Bueno podemos hacer eso:

Adele canta hermoso, no queda duda. Después de la operación post 21, grabó lo que quizás sea su mejor actuación en el Royal Albert Hall de Londres, un teatro con una acústica perfecta, el sonido en el blu ray 5.1 con canales dedicados DTS es una cosa celestial.
Cada día está más cerca del blues, cada vez las letras son más blues y menos R&B. Menos pop y más Adele.
Cada vez que canta suena más a ella misma, con su forma más definida. Como diría Les Paul

Quería que mi mamá pudiera reconocerme en cualquier parte que me escuchara

y evoluciona en su forma, con cada disco, con cada grabación.

25

Adele "25"

Adele «25»

25 es la evolución natural de la forma orgánica del Live at the Royal Albert Hall, es importante recalcar esto. Cada tema fue arreglado de forma muy específica para ser ejecutado con la orquesta que se presentó en el teatro londinense; los temas que tenían sonidos más pop y algunos sintetizadores fueron removidos en su totalidad por un piano y una sección de cuerdas. La forma como se ejecutó cada tema llevaba la voz de Adele a su perfecto límite sin estresarla.

25 es el resultado de ese sonido orgánico y natural, no más sintetizadores, no más sonidos con eco, la banda ha sido reducida a su forma más básica dándole todo el protagonismo a Adele para que pueda utilizar su rango vocal amplio y basto como un océano sin dejar de sonar como Aretha Franklin, como Billie Holiday o mi favorita, por encima de todas las cantantes habidas y por haber (incluyendo a la misma Adele): Ella Fitzgerald.

En este disco sigue mucho la fórmula de composición de los últimos dos discos, con temas bastante sencillos, que tienen solo un piano y los acentos de Adele por cada una de las barras del pentagrama. Es la combinación: es un blues, es un jazz, es un soul, es folk; es algo que combina las estas cosas y tiene como resultado temas como “Remedy” que poco más le hace falta para rozar la perfección sonora y lírica.


25 es un disco totalmente emocional, pensábamos que ahora que Adele tiene su hijo y está estable en la vida este disco sería una fiesta, un carnaval una pachanga de puro R&B y cuán equivocados estábamos. Este albúm es un trainwreck emocional, te agarra por el rabillo del alma y te agita hasta que saca hasta la última gota de felicidad. Es melancólico, las notas son el equivalente a la frase “While my guitar gently weeps”. son grises, tristes; las letras son una llave mata leones al corazón entre estas destaca la obertura del album “Hello”, “Remedy”, “Million Years Ago”, y uno de los bonus tracks que insisto en que debería ser parte del disco natural “Can’t Let Go”. Valga la acotación ninguna de las canciones llega a la felicidad bailable de “Rollin’ In The Deep” o “Rumour Has It”, pero si hay un par de temas upbeat, casi himnos, en la forma de “Sweetest Devotion”, «Send My Love (To Your New Lover)» y “River Lea

Tracklist

1. «Hello» Adele Adkins Greg Kurstin 4:55
2. «Send My Love (To Your New Lover)» Adkins Max Martin Shellback 3:43
3. «I Miss You» Adkins Paul Epworth 5:49
4. «When We Were Young» Adkins Tobias Jesso, Jr. 4:51
5. «Remedy» Adkins Ryan Tedder 4:05
6. «Water Under the Bridge» Adkins Kurstin 4:00
7. «River Lea» Adkins Brian Burton 3:45
8. «Love in the Dark» Adkins Samuel Dixon 4:46
9. «Million Years Ago» Adkins Kurstin 3:47
10. «All I Ask» Adkins Bruno Mars Philip Lawrence Christopher Brody Brown 4:32
11. «Sweetest Devotion» Adkins Epworth 4:12
Total length: 48:25
[Bonus Tracks en Japón y Target USA]
12. «Can’t Let Go» Adkins Linda Perry 3:18
13. «Lay Me Down» Adkins Jesso, Jr. 4:30
14. «Why Do You Love Me» Adkins Rick Nowels 3:59
Total length: 60:12

Este álbum es tan perfecto como podría ser, es todo lo que queríamos que fuera y mucho más, es lo que esperábamos y aún así resulta sorprendente ¿qué más podríamos pedir de Adele nuevamente excepto que nos de la gracia temprana de su voz por los años próximos?
Esta probablemente sea la barra con la que todos los demás serán medidos, y no podríamos culparlo, este disco tiene tantos puntos altos y tantos momentos increíbles que no me sorprendería, en lo absoluto, que hiciera lo mismo que 21: Ganar cada grammy ganable bajo la luz del sol y más. Como acotación, el disco ha roto el record de lo más vendido en solo 3 días y ha roto records de vistas en youtube y seguramente seguirá partiendo records como si se hablará de que tan bonito el día de hoy.

Puntuación 10/10

DR11 0.00 dB -15.40 dB 4:53 01-Hello
DR11 -1.21 dB -14.59 dB 3:44 02-Send My Love (To Your New Lover)
DR10 0.00 dB -12.84 dB 5:47 03-I Miss You
DR12 -2.15 dB -17.41 dB 4:46 04-When We Were Young
DR10 -3.51 dB -16.29 dB 4:03 05-Remedy
DR10 -2.04 dB -14.69 dB 4:00 06-Water Under The Bridge
DR10 -0.18 dB -13.26 dB 3:45 07-River Lea
DR10 -1.62 dB -15.52 dB 4:42 08-Love In The Dark
DR11 0.00 dB -16.65 dB 3:49 09-Million Years Ago
DR9 -4.09 dB -16.11 dB 4:30 10-All I Ask
DR12 0.00 dB -14.00 dB 4:06 11-Sweetest Devotion
——————————————————————————–

Number of tracks: 11
Official DR value: DR11

Samplerate: 96000 Hz
Channels: 2
Bits per sample: 24
Bitrate: 2843 kbps
Codec: FLAC

El tema que dejamos del promocional es el segundo, «When We Were Young» Por que lo grabaron directamente en el estudio, y podemos ver ese rango tan hermoso que tiene la inglesa. Pero no se engañen, todo el disco suena tan natural como esto. La diferencia entre Adele grabada y Adele en disco se ha reducido a los acentos que agrega con el público que tiene al frente.

http://adele.com/
https://twitter.com/Adele
https://www.instagram.com/adele/
Grabado en Inglaterra, entre el 2013 y el 2015, publicado por XL Recordings el 20 de Noviembre del 2015.

Luis Robles

Luis Robles

Un tipo de sistemas que cree que sabe escribir, le gusta la música y extenderse mientras te describe un paisaje sonoro.